#TITLE:3 Vs 3;
#SUBTITLE:;
#ARTIST:Hu Yanbin;
#TITLETRANSLIT:3 Vs 3;
#SUBTITLETRANSLIT:;
#ARTISTTRANSLIT:Hu Yanbin;
#CREDIT:;
#BANNER:3 Vs 3-bn.png;
#BACKGROUND:3 Vs 3-bg.png;
#LYRICSPATH:;
#CDTITLE:pm4cd.png;
#MUSIC:3 Vs 3.mp3;
#OFFSET:0.080;
#SAMPLESTART:58.254;
#SAMPLELENGTH:20.000;
#SELECTABLE:YES;
#BPMS:0.000=100.010,174.750=200.010,177.750=100.010;
#STOPS:;
#BGCHANGES:;
// cache tags:
#FIRSTBEAT:0.750;
#LASTBEAT:337.250;
#SONGFILENAME:Songs/Music V.I.P ^_^/3 Vs 3/3 Vs 3.sm;
#HASMUSIC:1;
#HASBANNER:1;
#MUSICLENGTH:203.658;
// end cache tags

//---------------dance-single - ----------------
#NOTES:
     dance-single:
     :
     Hard:
     11:
     0.851,0.911,1.000,0.059,1.000,924.000,273.000,12.000,4.000,9.000:
0000
0000
0000
1000
0000
0100
0100
0010
0000
0000
0000
0010
0010
0000
0000
0001
,
0000
0000
0000
1000
0000
0100
0000
1000
0000
0100
1000
0010
0001
0010
0000
0010
,
0100
0000
0000
1000
0000
0100
0100
0000
0010
0000
0001
0001
0000
1000
1000
0000
,
1000
0010
0000
1100
0000
0010
0010
0000
0100
0000
1000
1000
0000
0001
0001
0000
,
1000
0000
0000
1010
0000
1001
1001
0010
1100
0010
1100
1000
0100
1010
1001
0010
,
1010
0100
0000
1010
0000
1001
1001
0010
1100
0010
1100
1000
0100
1010
1001
0010
,
1010
0100
0000
1010
0000
1001
1001
0010
1100
0010
1100
1000
0100
1010
1001
0010
,
1010
0100
0000
2002
0000
0000
0000
0000
0000
0000
0000
0220
0000
0000
0000
0000
,
0000
0000
3333
1111
0000
0100
0100
0001
1000
0000
0100
1001
0000
0100
0010
0001
,
1000
0000
0000
1001
0000
0100
1000
0001
0010
0000
0100
1001
0000
0010
1000
0001
,
0100
0000
0000
1010
0000
1000
0100
0001
1000
0000
0100
1010
0000
0100
1000
0010
,
1000
0001
0000
1010
0000
1000
0100
0001
1000
0000
1000
0011
0000
0100
0100
0001
,
1000
0000
0000
1001
0000
0010
0010
0001
1000
0000
0010
0101
0000
1000
0100
0001
,
1000
0000
0000
1001
0000
0010
0010
0001
1000
0000
0100
0101
0000
0010
0010
0001
,
1000
0000
0000
1001
0000
0010
1000
0100
1000
0000
1000
0101
0000
0100
1000
0001
,
0010
0001
0000
1001
0000
0010
1000
0001
1000
0000
0010
1001
0000
1000
0100
0001
,
1000
0000
0000
1001
0000
0000
1000
0101
0000
0000
0010
1001
0000
0100
0100
0001
,
1000
0000
0000
1001
0000
0010
0011
0001
1000
0000
1000
1010
0000
0100
0010
0001
,
1000
0000
0000
1001
0000
0100
0110
0010
1000
0000
1000
0011
0000
0100
0100
0001
,
1000
0000
0000
1002
0000
1000
1000
0000
1000
0000
1000
1000
0000
1000
1000
0000
,
1000
0000
0003
1001
0000
0100
0101
0001
1000
0000
1000
1010
0000
0010
1000
0001
,
0100
0000
0000
1001
0000
0100
1001
0010
1000
0000
1000
0101
0000
1000
1000
0010
,
1000
0000
0000
1001
0000
0010
0010
0001
1000
0000
0100
0101
0000
1000
1000
0001
,
0100
0000
0000
0102
0000
0100
0100
0000
0100
0000
0100
0100
0000
0100
0100
0000
,
0100
0000
0003
1010
0000
1010
1010
0001
1001
0100
1010
1000
0010
1100
1001
0100
,
1100
0010
0000
1010
0000
1001
0101
0100
1010
0100
1010
1000
0100
1010
1001
0010
,
1100
0101
0100
1010
0000
1010
1010
0001
1010
0001
1100
1000
0001
1010
1100
0001
,
1001
0100
0000
1001
0000
1001
0100
0000
0010
0000
1001
1000
0000
1001
1000
0000
,
1000
0000
0000
1010
0000
1001
1001
0100
1010
0100
1010
1000
0010
1100
1001
0100
,
1100
0010
0000
1010
0000
1100
1100
0010
1001
0010
1001
1000
0001
1010
1100
0010
,
1100
0101
0100
1010
0000
1100
1100
0010
1001
0010
1001
1000
0001
1010
1100
0010
,
1010
0001
0000
0001
0000
0010
0000
0000
0000
0000
0000
0100
0000
0000
1000
0000
,
0000
0000
0000
1010
0000
0001
0010
0001
1000
0001
0010
0001
1000
0001
0010
0001
,
1000
0001
0000
0101
0000
1000
0100
1000
0001
1000
0100
1000
0001
1000
0100
1000
,
1000
1000
1000
1000
0010
1000
0001
1000
0010
1000
0001
1000
0010
1000
0001
1000
,
0010
1000
0001
2200
0000
0010
0010
0000
0010
0000
0010
0010
0000
0010
3300
0001
,
0001
0001
0001
0101
0000
0010
0100
1000
0001
0100
0010
0001
1000
0010
0100
1000
,
0001
0000
0000
0100
0000
0000
0010
0000
0000
0001
0000
0000
0100
0000
0000
0001
0000
0000
0010
0000
0000
0100
0000
0000
0010
0000
0000
1000
0000
0000
0100
0000
0000
0010
0000
0000
0100
0000
0000
0001
0000
0010
0000
0100
0000
1000
0000
0000
,
0001
1000
0010
0100
0001
1000
0010
0100
0001
1000
0010
0100
0001
1000
0010
1000
,
0001
1000
0010
1100
0000
0001
0010
0001
0000
1000
0100
1000
0100
1000
0100
0010
,
0000
0000
0000
1111
0000
0001
0001
0010
1000
0000
0001
1010
0000
0001
0010
0100
,
0001
0000
0000
1001
0000
0010
0100
0001
1000
0000
0010
1100
0000
0001
0000
0010
,
0000
0100
0000
0011
0000
0010
0100
1000
0001
0000
1000
0101
0000
0010
0001
0100
,
1000
0010
0000
0101
0000
0001
0100
1000
0001
0000
0100
2002
0000
0000
0000
0000
,
0000
0000
0000
0000
0000
0000
0000
0000
3003
1001
0000
0100
0100
1000
0010
0000
,
0010
1100
0000
1000
0010
0101
1000
0000
0000
1001
0000
0001
0001
0100
0010
0000
,
0100
0110
0000
1000
1000
0010
0100
0000
0000
1001
0000
0100
1000
0001
1000
0000
,
0001
0101
0000
0010
0001
1000
0100
1000
0000
1001
0000
0100
1000
0010
0001
0000
,
0100
0011
0000
0001
0010
0100
0010
0000
0000
1001
0000
0000
0010
1100
0000
0000
,
0100
1001
0000
1000
1000
0100
0001
0000
0000
1001
0000
1000
1100
0100
0001
0000
,
0001
1001
0000
0010
0100
1000
0001
0000
0000
1001
0000
0010
1010
1000
0001
0000
,
1000
1100
0000
0010
0010
0100
0001
0000
0000
2001
0000
0001
0001
0000
0001
0000
,
0001
0001
0000
0001
0001
0000
0001
0000
3000
1001
0000
0010
0011
0001
0100
0000
,
0001
0011
0000
0100
0001
1000
0010
0000
0000
1001
0000
0010
1001
0100
0001
0000
,
0010
1100
0000
0001
0001
0010
0100
0000
0000
1001
0000
0100
0100
0010
0001
0000
,
0010
1001
0000
0010
0010
0100
1000
0000
0000
0120
0000
0001
0001
0000
0001
0000
,
0001
0001
0000
0001
0001
0000
0001
0000
0030
1001
0000
1010
1010
0001
1001
0100
,
1010
1000
0010
1100
1001
0100
1100
0010
0000
1010
0000
1001
0101
0100
1010
0100
,
1010
1000
0100
1010
1001
0010
1100
0101
0100
1010
0000
1010
1010
0001
1010
0001
,
1100
1000
0001
1010
1100
0001
1001
0100
0000
1001
0000
1001
0100
0000
0010
0000
,
1001
1000
0000
1001
1000
0000
1000
0000
0000
1010
0000
1001
1001
0100
1010
0100
,
1010
1000
0010
1100
1001
0100
1100
0010
0000
1010
0000
1100
1100
0010
1001
0010
,
1001
1000
0001
1010
1100
0010
0110
0011
0010
1010
0000
1100
1100
0010
1001
0010
,
1001
1000
0001
1010
1100
0010
1010
0001
0000
1100
0000
1100
0000
0000
0000
1000
,
0000
0000
0101
0000
0101
0000
0000
0100
0000
0001
0000
0000
0001
0000
0000
0000
,
1000
0000
0000
1000
0000
0000
0000
0000
0000
0100
0000
0000
0100
0000
0000
0010
,
0000
0000
0010
0100
0000
1000
1000
1000
1000
0001
0000
0000
0001
0000
0000
0000
,
1000
0000
0000
1000
0000
0000
0000
0000
0010
0000
0000
0010
0000
0000
0100
0000
,
0000
0100
0000
0000
0001
0000
0000
0001
0000
1010
0000
1001
1001
0010
1100
0010
,
1100
1000
0100
1010
1001
0010
1010
0100
0000
1001
0000
1100
1100
0001
1010
0001
,
1010
1000
0010
1001
1100
0001
1100
0110
0100
1010
0000
1001
1001
0100
1010
0100
,
1010
1000
0010
1100
1001
0100
1100
0010
0000
1001
0000
0000
1001
0010
0000
1000
,
0000
1001
0100
0000
1001
0010
0000
0100
0000
1010
0000
1001
1001
0010
1100
0010
,
1100
1000
0100
1010
1001
0010
1010
0100
0000
1010
0000
1001
1001
0010
1100
0010
,
1100
1000
0100
1010
1001
0010
1001
0101
0001
1010
0000
1100
1100
0010
1001
0010
,
1001
1000
0001
1010
1100
0010
1010
0001
0000
1001
0000
1001
0000
0000
0010
1000
,
0000
1001
0100
0000
1001
0010
0000
1000
0000
1000
0100
0010
0001
0001
0010
0100
,
1000
0001
0010
0100
1000
1000
0100
0010
0001
0100
0001
0100
1000
0100
0001
0100
,
1000
0100
0001
0100
1000
0100
0001
0100
1000
0010
1000
0010
0001
0010
1000
0010
,
0001
0010
1000
0010
0001
0010
1000
0010
0001
1000
0100
1000
0010
1000
0001
1000
,
0100
0001
0010
0001
0100
0001
0010
0001
0000
0000
0000
0000
0000
0000
0000
0000
,
0000
0000
0000
0000
,
0000
0000
0000
0000
,
0000
0000
0000
0000
,
0000
0000
0000
0000
0000
MMMM
0000
0000
0000
0000
0000
0000
0000
0000
0000
0000
;

//---------------dance-single - Copied from----------------
#NOTES:
     dance-single:
     Copied from:
     Medium:
     11:
     0.507,0.907,0.854,0.029,0.737,541.000,174.000,6.000,4.000,2.000:
0000
0000
0000
1000
0000
0100
0100
0010
0000
0000
0000
0010
0010
0000
0000
0001
,
0000
0000
0000
1000
0000
0100
0000
1000
0000
0100
1000
0010
0001
0010
0000
0010
,
0100
0000
0000
1000
0000
0100
0100
0000
0010
0000
0001
0001
0000
1000
1000
0000
,
1000
0010
0000
1100
0000
0010
0010
0000
0100
0000
1000
1000
0000
0001
0001
0000
,
1000
0000
0000
1010
0000
1001
1001
0010
1100
0010
1100
1000
0100
1010
1001
0010
,
1010
0100
0000
1010
0000
1001
1001
0010
1100
0010
1100
1000
0100
1010
1001
0010
,
1010
0100
0000
1010
0000
1001
1001
0010
1100
0010
1100
1000
0100
1010
1001
0010
,
1010
0100
0000
2002
0000
0000
0000
0000
0000
0000
0000
0220
0000
0000
0000
0000
,
0000
0000
3333
1111
0000
0100
0100
0001
1000
0000
0100
1001
0000
0100
0010
0001
,
1000
0000
0000
1001
0000
0100
1000
0001
0010
0000
0100
1001
0000
0010
1000
0001
,
0100
0000
0000
1010
0000
1000
0100
0001
1000
0000
0100
1010
0000
0100
1000
0010
,
1000
0001
0000
1010
0000
1000
0100
0001
1000
0000
1000
0011
0000
0100
0100
0001
,
1000
0000
0000
1001
0000
0010
0010
0001
1000
0000
0010
0101
0000
1000
0100
0001
,
1000
0000
0000
1001
0000
0010
0010
0001
1000
0000
0100
0101
0000
0010
0010
0001
,
1000
0000
0000
1001
0000
0010
1000
0100
1000
0000
1000
0101
0000
0100
1000
0001
,
0010
0001
0000
1001
0000
0010
1000
0001
1000
0000
0010
1001
0000
1000
0100
0001
,
1000
0000
0000
1001
0000
0000
1000
0101
0000
0000
0010
1001
0000
0100
0100
0001
,
1000
0000
0000
1001
0000
0010
0011
0001
1000
0000
1000
1010
0000
0100
0010
0001
,
1000
0000
0000
1001
0000
0100
0110
0010
1000
0000
1000
0011
0000
0100
0100
0001
,
1000
0000
0000
1002
0000
1000
1000
0000
1000
0000
1000
1000
0000
1000
1000
0000
,
1000
0000
0003
1001
0000
0100
0101
0001
1000
0000
1000
1010
0000
0010
1000
0001
,
0100
0000
0000
1001
0000
0100
1001
0010
1000
0000
1000
0101
0000
1000
1000
0010
,
1000
0000
0000
1001
0000
0010
0010
0001
1000
0000
0100
0101
0000
1000
1000
0001
,
0100
0000
0000
0102
0000
0100
0100
0000
0100
0000
0100
0100
0000
0100
0100
0000
,
0100
0000
0003
1010
0000
1010
1010
0001
1001
0100
1010
1000
0010
1100
1001
0100
,
1100
0010
0000
1010
0000
1001
0101
0100
1010
0100
1010
1000
0100
1010
1001
0010
,
1100
0101
0100
1010
0000
1010
1010
0001
1010
0001
1100
1000
0001
1010
1100
0001
,
1001
0100
0000
1001
0000
1001
0100
0000
0010
0000
1001
1000
0000
1001
1000
0000
,
1000
0000
0000
1010
0000
1001
1001
0100
1010
0100
1010
1000
0010
1100
1001
0100
,
1100
0010
0000
1010
0000
1100
1100
0010
1001
0010
1001
1000
0001
1010
1100
0010
,
1100
0101
0100
1010
0000
1100
1100
0010
1001
0010
1001
1000
0001
1010
1100
0010
,
1010
0001
0000
0001
0000
0010
0000
0000
0000
0000
0000
0100
0000
0000
1000
0000
,
0000
0000
0000
0000
,
0000
0000
0000
0000
,
0000
0000
0000
0000
,
0000
0000
0000
0000
,
0000
0000
0000
0000
,
0000
0000
0000
0000
,
0000
0000
0000
0000
,
0000
0000
0000
0000
,
0000
0000
0000
0000
,
0000
0000
0000
0000
,
0000
0000
0000
0000
,
0000
0000
0000
0000
,
0000
0000
0000
0000
,
0000
0000
0000
0000
,
0000
0000
0000
0000
,
0000
0000
0000
0000
,
0000
0000
0000
0000
,
0000
0000
0000
0000
,
0000
0000
0000
0000
,
0000
0000
0000
0000
,
0000
0000
0000
0000
,
0000
0000
0000
0000
,
0000
0000
0000
0000
,
0000
0000
0000
0000
,
0000
0000
0000
0000
,
0000
0000
0000
0000
,
0000
0000
0000
0000
,
0000
0000
0000
0000
,
0000
0000
0000
0000
,
0000
0000
0000
0000
,
0000
0000
0000
0000
,
0000
0000
0000
0000
,
0000
0000
0000
0001
0000
0000
0001
0000
0000
0000
1000
0000
0000
1000
0000
0000
,
0000
0000
0000
0100
0000
0000
0100
0000
0000
0010
0000
0000
0010
0100
0000
1000
,
1000
1000
1000
0001
0000
0000
0001
0000
0000
0000
1000
0000
0000
1000
0000
0000
,
0000
0000
0010
0000
0000
0010
0000
0000
0100
0000
0000
0100
0000
0000
0001
0000
,
0000
0001
0000
1010
0000
1001
1001
0010
1100
0010
1100
1000
0100
1010
1001
0010
,
1010
0100
0000
1001
0000
1100
1100
0001
1010
0001
1010
1000
0010
1001
1100
0001
,
1100
0110
0100
1010
0000
1001
1001
0100
1010
0100
1010
1000
0010
1100
1001
0100
,
1100
0010
0000
1001
0000
0000
1001
0010
0000
1000
0000
1001
0100
0000
1001
0010
,
0000
0100
0000
1010
0000
1001
1001
0010
1100
0010
1100
1000
0100
1010
1001
0010
,
1010
0100
0000
1010
0000
1001
1001
0010
1100
0010
1100
1000
0100
1010
1001
0010
,
1001
0101
0001
1010
0000
1100
1100
0010
1001
0010
1001
1000
0001
1010
1100
0010
,
1010
0001
0000
1001
0000
1001
0000
0000
0010
1000
0000
1001
0100
0000
1001
0010
,
0000
1000
0000
1000
0100
0010
0001
0001
0010
0100
1000
0001
0010
0100
1000
1000
,
0100
0010
0001
0100
0001
0100
1000
0100
0001
0100
1000
0100
0001
0100
1000
0100
,
0001
0100
1000
0010
1000
0010
0001
0010
1000
0010
0001
0010
1000
0010
0001
0010
,
1000
0010
0001
1000
0100
1000
0010
1000
0001
1000
0100
0001
0010
0001
0100
0001
,
0010
0001
0000
0000
0000
0000
0000
0000
0000
0000
0000
0000
0000
0000
0000
0000
,
0000
0000
0000
0000
,
0000
0000
0000
0000
,
0000
0000
0000
0000
0000
0000
0000
0000
0000
0000
0000
0000
0000
0000
0000
MMMM
;

//---------------dance-single - Copied from----------------
#NOTES:
     dance-single:
     Copied from:
     Easy:
     11:
     0.507,0.907,0.854,0.029,0.737,541.000,174.000,6.000,4.000,2.000:
0000
0000
0000
1000
0000
0100
0100
0010
0000
0000
0000
0010
0010
0000
0000
0001
,
0000
0000
0000
1000
0000
0100
0000
1000
0000
0100
1000
0010
0001
0010
0000
0010
,
0100
0000
0000
1000
0000
0100
0100
0000
0010
0000
0001
0001
0000
1000
1000
0000
,
1000
0010
0000
1100
0000
0010
0010
0000
0100
0000
1000
1000
0000
0001
0001
0000
,
1000
0000
0000
1010
0000
1001
1001
0010
1100
0010
1100
1000
0100
1010
1001
0010
,
1010
0100
0000
1010
0000
1001
1001
0010
1100
0010
1100
1000
0100
1010
1001
0010
,
1010
0100
0000
1010
0000
1001
1001
0010
1100
0010
1100
1000
0100
1010
1001
0010
,
1010
0100
0000
2002
0000
0000
0000
0000
0000
0000
0000
0220
0000
0000
0000
0000
,
0000
0000
3333
1111
0000
0100
0100
0001
1000
0000
0100
1001
0000
0100
0010
0001
,
1000
0000
0000
1001
0000
0100
1000
0001
0010
0000
0100
1001
0000
0010
1000
0001
,
0100
0000
0000
1010
0000
1000
0100
0001
1000
0000
0100
1010
0000
0100
1000
0010
,
1000
0001
0000
1010
0000
1000
0100
0001
1000
0000
1000
0011
0000
0100
0100
0001
,
1000
0000
0000
1001
0000
0010
0010
0001
1000
0000
0010
0101
0000
1000
0100
0001
,
1000
0000
0000
1001
0000
0010
0010
0001
1000
0000
0100
0101
0000
0010
0010
0001
,
1000
0000
0000
1001
0000
0010
1000
0100
1000
0000
1000
0101
0000
0100
1000
0001
,
0010
0001
0000
1001
0000
0010
1000
0001
1000
0000
0010
1001
0000
1000
0100
0001
,
1000
0000
0000
1001
0000
0000
1000
0101
0000
0000
0010
1001
0000
0100
0100
0001
,
1000
0000
0000
1001
0000
0010
0011
0001
1000
0000
1000
1010
0000
0100
0010
0001
,
1000
0000
0000
1001
0000
0100
0110
0010
1000
0000
1000
0011
0000
0100
0100
0001
,
1000
0000
0000
1002
0000
1000
1000
0000
1000
0000
1000
1000
0000
1000
1000
0000
,
1000
0000
0003
1001
0000
0100
0101
0001
1000
0000
1000
1010
0000
0010
1000
0001
,
0100
0000
0000
1001
0000
0100
1001
0010
1000
0000
1000
0101
0000
1000
1000
0010
,
1000
0000
0000
1001
0000
0010
0010
0001
1000
0000
0100
0101
0000
1000
1000
0001
,
0100
0000
0000
0102
0000
0100
0100
0000
0100
0000
0100
0100
0000
0100
0100
0000
,
0100
0000
0003
1010
0000
1010
1010
0001
1001
0100
1010
1000
0010
1100
1001
0100
,
1100
0010
0000
1010
0000
1001
0101
0100
1010
0100
1010
1000
0100
1010
1001
0010
,
1100
0101
0100
1010
0000
1010
1010
0001
1010
0001
1100
1000
0001
1010
1100
0001
,
1001
0100
0000
1001
0000
1001
0100
0000
0010
0000
1001
1000
0000
1001
1000
0000
,
1000
0000
0000
1010
0000
1001
1001
0100
1010
0100
1010
1000
0010
1100
1001
0100
,
1100
0010
0000
1010
0000
1100
1100
0010
1001
0010
1001
1000
0001
1010
1100
0010
,
1100
0101
0100
1010
0000
1100
1100
0010
1001
0010
1001
1000
0001
1010
1100
0010
,
1010
0001
0000
0001
0000
0010
0000
0000
0000
0000
0000
0100
0000
0000
1000
0000
,
0000
0000
0000
0000
,
0000
0000
0000
0000
,
0000
0000
0000
0000
,
0000
0000
0000
0000
,
0000
0000
0000
0000
,
0000
0000
0000
0000
,
0000
0000
0000
0000
,
0000
0000
0000
0000
,
0000
0000
0000
0000
,
0000
0000
0000
0000
,
0000
0000
0000
0000
,
0000
0000
0000
0000
,
0000
0000
0000
0000
,
0000
0000
0000
0000
,
0000
0000
0000
0000
,
0000
0000
0000
0000
,
0000
0000
0000
0000
,
0000
0000
0000
0000
,
0000
0000
0000
0000
,
0000
0000
0000
0000
,
0000
0000
0000
0000
,
0000
0000
0000
0000
,
0000
0000
0000
0000
,
0000
0000
0000
0000
,
0000
0000
0000
0000
,
0000
0000
0000
0000
,
0000
0000
0000
0000
,
0000
0000
0000
0000
,
0000
0000
0000
0000
,
0000
0000
0000
0000
,
0000
0000
0000
0000
,
0000
0000
0000
0000
,
0000
0000
0000
0001
0000
0000
0001
0000
0000
0000
1000
0000
0000
1000
0000
0000
,
0000
0000
0000
0100
0000
0000
0100
0000
0000
0010
0000
0000
0010
0100
0000
1000
,
1000
1000
1000
0001
0000
0000
0001
0000
0000
0000
1000
0000
0000
1000
0000
0000
,
0000
0000
0010
0000
0000
0010
0000
0000
0100
0000
0000
0100
0000
0000
0001
0000
,
0000
0001
0000
1010
0000
1001
1001
0010
1100
0010
1100
1000
0100
1010
1001
0010
,
1010
0100
0000
1001
0000
1100
1100
0001
1010
0001
1010
1000
0010
1001
1100
0001
,
1100
0110
0100
1010
0000
1001
1001
0100
1010
0100
1010
1000
0010
1100
1001
0100
,
1100
0010
0000
1001
0000
0000
1001
0010
0000
1000
0000
1001
0100
0000
1001
0010
,
0000
0100
0000
1010
0000
1001
1001
0010
1100
0010
1100
1000
0100
1010
1001
0010
,
1010
0100
0000
1010
0000
1001
1001
0010
1100
0010
1100
1000
0100
1010
1001
0010
,
1001
0101
0001
1010
0000
1100
1100
0010
1001
0010
1001
1000
0001
1010
1100
0010
,
1010
0001
0000
1001
0000
1001
0000
0000
0010
1000
0000
1001
0100
0000
1001
0010
,
0000
1000
0000
1000
0100
0010
0001
0001
0010
0100
1000
0001
0010
0100
1000
1000
,
0100
0010
0001
0100
0001
0100
1000
0100
0001
0100
1000
0100
0001
0100
1000
0100
,
0001
0100
1000
0010
1000
0010
0001
0010
1000
0010
0001
0010
1000
0010
0001
0010
,
1000
0010
0001
1000
0100
1000
0010
1000
0001
1000
0100
0001
0010
0001
0100
0001
,
0010
0001
0000
0000
0000
0000
0000
0000
0000
0000
0000
0000
0000
0000
0000
0000
,
0000
0000
0000
0000
,
0000
0000
0000
0000
,
0000
0000
0000
0000
0000
0000
0000
0000
0000
0000
0000
0000
0000
0000
0000
MMMM
;
